[Login] or [Signup]
Login
Username:
Password:
[Signup]
[Recover Account]


Poll


You must be logged in to view polls



Torrent Details For "God of War 1 720p English x264 AAC-(link2download.website)"

God of War 1 720p English x264 AAC-(link2download.website)

Download this torrent | Magnet Download
Health:
Seeds: 0
Leechers: 0
Completed:
Last Checked: 03-10-2018 23:25:19
External Torrent
Update Stats
Download Magnet


Poster


iMDB
Title: God of War
All Genres: Action, Fantasy

Cast:


Watch-Free-HD     Download

Details
Name:God of War 1 720p English x264 AAC-(link2download.website)
Description:
God of War 1 720p English x264 AAC



Format                                   : MPEG-4
Format profile                           : Base Media / Version 2
Codec ID                                 : mp42 (isom/mp42)
File size                                : 4.16 GiB
Duration                                 : 5 h 54 min
Overall bit rate mode                    : Variable
Overall bit rate                         : 1 680 kb/s
Encoded date                             : UTC 2017-10-17 03:05:12
Tagged date                              : UTC 2017-10-17 03:05:12
gsst                                     : 0
gstd                                     : 21265902

Video
ID                                       : 1
Format                                   : AVC
Format/Info                              : Advanced Video Codec
Format profile                           : [email protected]
Format settings                          : CABAC / 3 Ref Frames
Format settings, CABAC                   : Yes
Format settings, RefFrames               : 3 frames
Codec ID                                 : avc1
Codec ID/Info                            : Advanced Video Coding
Duration                                 : 5 h 54 min
Bit rate                                 : 1 551 kb/s
Width                                    : 1 280 pixels
Height                                   : 720 pixels
Display aspect ratio                     : 16:9
Frame rate mode                          : Constant
Frame rate                               : 29.970 (30000/1001) FPS
Color space                              : YUV
Chroma subsampling                       : 4:2:0
Bit depth                                : 8 bits
Scan type                                : Progressive
Bits/(Pixel*Frame)                       : 0.056
Stream size                              : 3.84 GiB (92%)
Title                                    : ISO Media file produced by Google Inc. Created on: 10/16/2017.
Encoded date                             : UTC 2017-10-17 03:05:12
Tagged date                              : UTC 2017-10-17 03:05:12
Color range                              : Limited
Color primaries                          : BT.709
Transfer characteristics                 : BT.709
Matrix coefficients                      : BT.709

Audio
ID                                       : 2
Format                                   : AAC
Format/Info                              : Advanced Audio Codec
Format profile                           : LC
Codec ID                                 : mp4a-40-2
Duration                                 : 5 h 54 min
Bit rate mode                            : Variable
Bit rate                                 : 126 kb/s
Channel(s)                               : 2 channels
Channel positions                        : Front: L R
Sampling rate                            : 44.1 kHz
Frame rate                               : 43.066 FPS (1024 SPF)
Compression mode                         : Lossy
Stream size                              : 318 MiB (7%)
Title                                    : ISO Media file produced by Google Inc. Created on: 10/16/2017.
Encoded date                             : UTC 2017-10-17 03:05:12
Tagged date                              : UTC 2017-10-17 03:05:12



 
 
 
 
 
 
 
 
 
 
Category:Games > PC
Lang:English  English
Total Size:4.16 GB
Info Hash:b3a63713d4c27e46df7f97cf623d9b3b7ba96d66
Added By:dillu9
Date Added:23-01-2018 06:26:06
Views:775
Hits:89

Download Torrent

Ratings:Not Yet Rated (Log in to rate it)


Tracker:
http://bigfoot1942.sektori.org:6969/announce

This Torrent also has backup trackers
URLSeedersLeechersCompleted
http://bigfoot1942.sektori.org:6969/announce000
http://tracker2.wasabii.com.tw:6969/announce000
http://announce.torrentsmd.com:6969/announce000
http://glotorrents.pw:80/announce000


File List: 


Comments

No comments still posted

Powered by 10 Hamsters v2-svn -|- Page Generated In 1.596337 secs.
-|- RSS FEED
Theme By: Nikkbu